Login
Username:
Password:
[Signup]
[Recover Account]


Browse Torrents

Poll


You must be logged in to view polls



Latest Torrents
K.G.F: Chapter 1.(...
- [Size: 1.27 GB]

Black.Lightning.S0...
- [Size: 879.20 MB]

Murdered.at.17.201...
- [Size: 1.33 GB]

Lethal.Admirer.201...
- [Size: 1.33 GB]

Vinaya Vidheyan Ra...
- [Size: 1.04 GB]


Torrent Details For "Widows 2018 720p BluRay x264 Dual Audio [Hindi DD 5.1 - English 2.0] ESub [MW]"

Widows 2018 720p BluRay x264 Dual Audio [Hindi DD 5.1 - English 2.0] ESub [MW]

Download this torrent | Magnet Download
Health:
Seeds: 137
Leechers: 194
Completed: 1,183 
Last Checked: 12-02-2019 18:02:48
External Torrent
Update Stats



Images Host

Poster
No poster


Watch-Free-HD     Download

Details
Name:Widows 2018 720p BluRay x264 Dual Audio [Hindi DD 5.1 - English 2.0] ESub [MW]
Description:

 


General
Format                                   : Matroska
Format version                           : Version 4
File size                                : 1.29 GiB
Duration                                 : 2 h 9 min
Overall bit rate                         : 1 422 kb/s

Video
ID                                       : 1
Format                                   : AVC
Format/Info                              : Advanced Video Codec
Format profile                           : [email protected]
Format settings                          : CABAC / 4 Ref Frames
Format settings, CABAC                   : Yes
Format settings, RefFrames               : 4 frames
Codec ID                                 : V_MPEG4/ISO/AVC
Duration                                 : 2 h 9 min
Bit rate                                 : 1 050 kb/s
Width                                    : 1 280 pixels
Height                                   : 534 pixels
Display aspect ratio                     : 2.40:1
Original display aspect ratio            : 2.40:1
Frame rate mode                          : Constant
Frame rate                               : 23.976 (24000/1001) FPS
Color space                              : YUV
Chroma subsampling                       : 4:2:0
Bit depth                                : 8 bits
Scan type                                : Progressive
Bits/(Pixel*Frame)                       : 0.064
Stream size                              : 973 MiB (74%)
Writing library                          : x264 core 157

Audio #1
ID                                       : 2
Format                                   : AC-3
Format/Info                              : Audio Coding 3
Commercial name                          : Dolby Digital
Codec ID                                 : A_AC3
Duration                                 : 2 h 9 min
Bit rate mode                            : Constant
Bit rate                                 : 224 kb/s
Channel(s)                               : 6 channels
Channel layout                           : L R C LFE Ls Rs
Sampling rate                            : 48.0 kHz
Frame rate                               : 31.250 FPS (1536 SPF)
Bit depth                                : 16 bits
Compression mode                         : Lossy
Stream size                              : 208 MiB (16%)
Language                                 : Hindi
Service kind                             : Complete Main
Default                                  : Yes
Forced                                   : No

Audio #2
ID                                       : 3
Format                                   : AAC LC
Codec ID                                 : A_AAC-2
Duration                                 : 2 h 9 min
Bit rate                                 : 139 kb/s
Channel(s)                               : 2 channels
Channel layout                           : L R
Sampling rate                            : 48.0 kHz
Frame rate                               : 46.875 FPS (1024 SPF)
Compression mode                         : Lossy
Stream size                              : 128 MiB (10%)
Language                                 : English
Default                                  : No
Forced                                   : No

Text #1
ID                                       : 4
Format                                   : VobSub
Muxing mode                              : zlib
Codec ID                                 : S_VOBSUB
Codec ID/Info                            : Picture based subtitle format used on DVDs
Duration                                 : 2 h 5 min
Bit rate                                 : 6 999 b/s
Count of elements                        : 2106
Stream size                              : 6.30 MiB (0%)
Language                                 : English
Default                                  : Yes
Forced                                   : No


Click To View Image

 http://pichub.site/image/kLTXj
 http://pichub.site/image/kLQMr
 http://pichub.site/image/kLWtk
 http://pichub.site/image/kLbpQ
 http://pichub.site/image/kLeev
 http://pichub.site/image/kLqkd

Category:Movies > Hollywood Dub
Lang:Hindi
Total Size:1.29 GB
Info Hash:dd72d683bd8ce48d99883bc7dfdd70900a3455fb
Added By:Freaky
Date Added:11-02-2019 12:04:45
Downloads:365

Ratings:Not Yet Rated (Log in to rate it)


Tracker:
udp://tracker.coppersurfer.tk:6969/announce


File List: 


Comments

No comments still posted

Top
Copyright 2018 DownloadHD -|- Page Generated In 0.212505 secs.
-|- RSS Feed -|- Feed Info